<?xml version="1.0" standalone="no"?>
<!DOCTYPE svg PUBLIC "-//W3C//DTD SVG 1.1//EN" "http://www.w3.org/Graphics/SVG/1.1/DTD/svg11.dtd">
<svg xmlns="http://www.w3.org/2000/svg">
<defs >
<font id="OpenSansCondensed" horiz-adv-x="1026" ><font-face
    font-family="Open Sans Condensed"
    units-per-em="2048"
    panose-1="2 11 8 6 3 5 4 2 2 4"
    ascent="2189"
    descent="-600"
    alphabetic="0" />
<glyph unicode=" " glyph-name="space" horiz-adv-x="506" />
<glyph unicode="!" glyph-name="exclam" horiz-adv-x="555" d="M387 471H168L119 1462H438L387 471ZM111 137Q111 215 152 258T276 301Q358 301 400 259T442 137Q442 59 399 16T276 -27Q195 -27 153 16T111 137Z" />
<glyph unicode="&quot;" glyph-name="quotedbl" horiz-adv-x="913" d="M383 1462L342 934H162L121 1462H383ZM793 1462L752 934H571L530 1462H793Z" />
<glyph unicode="#" glyph-name="numbersign" horiz-adv-x="1114" d="M856 856L819 604H1022V410H793L733 0H541L602 410H420L362 0H170L229 410H41V604H258L295 856H94V1049H324L383 1462H571L512 1049H694L756 1462H944L885 1049H1075V856H856ZM449 604H629L666
856H483L449 604Z" />
<glyph unicode="$" glyph-name="dollar" horiz-adv-x="948" d="M874 457Q874 298 785 203T530 90V-119H414V86Q224 92 74 170V416Q154 369 243 339T414 305V643L379 659Q209 740 142 826T74 1044Q74 1194 163 1285T414 1395V1556H530V1397Q685 1387 838 1311L758
1098Q630 1160 530 1169V852Q561 840 561 838Q688 783 751 732T844 614T874 457ZM639 451Q639 496 620 525T530 590V311Q639 330 639 451ZM309 1044Q309 993 333 962T414 907V1169Q309 1153 309 1044Z" />
<glyph unicode="%" glyph-name="percent" horiz-adv-x="1554" d="M276 1024Q276 885 294 822T354 758Q396 758 415 821T434 1024Q434 1163 415 1226T354 1290Q312 1290 294 1227T276 1024ZM647 1026Q647 800 572 683T352 565Q203 565 133 680T63 1022Q63 1483
352 1483Q647 1483 647 1026ZM1120 440Q1120 301 1138 238T1198 174Q1240 174 1259 237T1278 440Q1278 579 1259 642T1198 705Q1157 705 1139 642T1120 440ZM1491 442Q1491 216 1415 99T1196 -18Q1046 -18 977 96T907 438Q907 662 978 780T1196 899Q1491 899 1491
442ZM1182 1462L578 0H371L973 1462H1182Z" />
<glyph unicode="&amp;" glyph-name="ampersand" horiz-adv-x="1190" d="M872 0L801 102Q665 -20 463 -20Q271 -20 165 89T59 391Q59 639 303 807Q226 926 201 995T176 1141Q176 1297 273 1390T528 1483Q680 1483 770 1397T860 1157Q860 1052 805 958T621 766L825
479Q859 541 878 617T911 768H1143Q1105 488 977 270L1171 0H872ZM328 416Q328 323 372 270T492 217Q592 217 668 291L428 637Q328 547 328 416ZM614 1133Q614 1198 588 1227T524 1257Q478 1257 451 1225T424 1130Q424 1075 447 1029T506 934Q567 981 590 1025T614
1133Z" />
<glyph unicode="&apos;" glyph-name="quotesingle" horiz-adv-x="504" d="M383 1462L342 934H162L121 1462H383Z" />
<glyph unicode="(" glyph-name="parenleft" horiz-adv-x="666" d="M74 561Q74 826 151 1057T375 1462H610Q470 1269 398 1038T326 563Q326 316 401 86T608 -324H375Q228 -154 151 73T74 561Z" />
<glyph unicode=")" glyph-name="parenright" horiz-adv-x="666" d="M592 561Q592 298 515 71T291 -324H57Q192 -140 266 88T340 563Q340 807 268 1038T55 1462H291Q438 1287 515 1056T592 561Z" />
<glyph unicode="*" glyph-name="asterisk" horiz-adv-x="952" d="M594 1556L557 1249L868 1335L901 1110L616 1092L801 846L602 737L473 997L356 737L152 846L334 1092L53 1114L90 1335L393 1249L356 1556H594Z" />
<glyph unicode="+" glyph-name="plus" horiz-adv-x="918" d="M360 618H106V825H360V1198H557V825H811V618H557V250H360V618Z" />
<glyph unicode="," glyph-name="comma" horiz-adv-x="553" d="M430 215Q378 13 254 -264H51Q116 2 152 238H416L430 215Z" />
<glyph unicode="-" glyph-name="hyphen" horiz-adv-x="647" d="M72 432V666H575V432H72Z" />
<glyph unicode="." glyph-name="period" horiz-adv-x="553" d="M111 137Q111 215 152 258T276 301Q358 301 400 259T442 137Q442 59 399 16T276 -27Q195 -27 153 16T111 137Z" />
<glyph unicode="/" glyph-name="slash" horiz-adv-x="829" d="M817 1462L272 0H16L561 1462H817Z" />
<glyph unicode="0" glyph-name="zero" horiz-adv-x="948" d="M874 731Q874 334 779 157T471 -20Q259 -20 167 158T74 731Q74 1127 171 1306T475 1485Q686 1485 780 1310T874 731ZM346 731Q346 424 372 318T473 211Q523 211 550 257T590 409T602 731Q602 1033 574
1143T473 1253Q399 1253 373 1144T346 731Z" />
<glyph unicode="1" glyph-name="one" horiz-adv-x="948" d="M729 0H461V858Q461 998 475 1180Q468 1170 424 1119T250 936L98 1102L487 1462H729V0Z" />
<glyph unicode="2" glyph-name="two" horiz-adv-x="948" d="M858 0H74V203L334 571Q441 723 481 796T540 937T559 1077Q559 1161 522 1203T424 1245Q371 1245 325 1217T213 1116L61 1276Q166 1395 256 1439T451 1483Q628 1483 727 1379T827 1090Q827 1006 809
931T755 781T663 624T379 250V242H858V0Z" />
<glyph unicode="3" glyph-name="three" horiz-adv-x="948" d="M829 1133Q829 995 761 902T569 772V764Q707 742 782 656T858 422Q858 220 733 100T389 -20Q195 -20 63 49V293Q129 253 206 230T354 207Q470 207 529 260T588 430Q588 649 319 649H236V852H315Q434
852 497 908T561 1075Q561 1162 521 1206T406 1251Q293 1251 186 1155L63 1335Q211 1483 436 1483Q621 1483 725 1390T829 1133Z" />
<glyph unicode="4" glyph-name="four" horiz-adv-x="948" d="M918 307H770V0H514V307H37V528L479 1462H770V532H918V307ZM514 532V840L519 976L526 1106H518Q483 997 442 909L266 532H514Z" />
<glyph unicode="5" glyph-name="five" horiz-adv-x="948" d="M500 915Q665 915 762 800T860 485Q860 246 739 113T401 -20Q209 -20 90 53V307Q141 270 221 242T371 213Q586 213 586 463Q586 696 377 696Q294 696 201 664L113 729L158 1462H782V1219H391L371 903Q427
915 500 915Z" />
<glyph unicode="6" glyph-name="six" horiz-adv-x="948" d="M74 621Q74 1068 213 1274T637 1481Q682 1481 727 1476T795 1464V1239Q726 1255 659 1255Q545 1255 472 1205T361 1056T315 776H326Q361 859 422 901T563 944Q710 944 792 825T874 483Q874 251 766 116T473
-20Q277 -20 176 142T74 621ZM475 209Q535 209 571 275T608 481Q608 594 576 659T477 725Q418 725 381 664T344 510Q344 364 378 287T475 209Z" />
<glyph unicode="7" glyph-name="seven" horiz-adv-x="948" d="M180 0L590 1219H80V1460H864V1276L461 0H180Z" />
<glyph unicode="8" glyph-name="eight" horiz-adv-x="948" d="M475 1481Q646 1481 748 1384T850 1120Q850 1017 803 934T641 774Q769 683 823 588T877 379Q877 200 767 90T475 -20Q286 -20 179 81T72 371Q72 497 125 593T291 762Q187 845 143 929T98 1120Q98 1284
203 1382T475 1481ZM330 385Q330 297 366 245T471 193Q545 193 581 245T618 385Q618 448 589 504T477 633L463 647Q398 599 364 538T330 385ZM473 1270Q416 1270 387 1229T358 1110Q358 1044 382 995T475 891Q541 942 565 993T590 1110Q590 1270 473 1270Z" />
<glyph unicode="9" glyph-name="nine" horiz-adv-x="948" d="M868 825Q868 -20 303 -20Q209 -20 147 -4V225Q215 203 274 203Q441 203 527 319T623 684H614Q582 605 523 561T381 516Q232 516 150 638T68 973Q68 1207 175 1344T463 1481Q659 1481 763 1312T868
825ZM465 1249Q405 1249 370 1184T334 979Q334 864 365 800T459 735Q516 735 558 800T600 950Q600 1080 563 1164T465 1249Z" />
<glyph unicode=":" glyph-name="colon" horiz-adv-x="553" d="M111 137Q111 215 152 258T276 301Q358 301 400 259T442 137Q442 59 399 16T276 -27Q195 -27 153 16T111 137ZM111 973Q111 1051 152 1094T276 1137Q358 1137 400 1095T442 973Q442 895 399 852T276
809Q195 809 153 852T111 973Z" />
<glyph unicode=";" glyph-name="semicolon" horiz-adv-x="553" d="M416 238L430 215Q378 13 254 -264H51Q116 2 152 238H416ZM111 973Q111 1051 152 1094T276 1137Q358 1137 400 1095T442 973Q442 895 399 852T276 809Q195 809 153 852T111 973Z" />
<glyph unicode="&lt;" glyph-name="less" horiz-adv-x="918" d="M811 209L106 645V801L811 1235V1010L324 723L811 434V209Z" />
<glyph unicode="=" glyph-name="equal" horiz-adv-x="918" d="M106 815V1020H811V815H106ZM106 422V629H811V422H106Z" />
<glyph unicode="&gt;" glyph-name="greater" horiz-adv-x="918" d="M106 434L596 723L106 1010V1235L811 801V645L106 209V434Z" />
<glyph unicode="?" glyph-name="question" horiz-adv-x="782" d="M219 471V541Q219 637 248 708T356 862Q430 943 450 989T471 1106Q471 1171 441 1212T346 1253Q238 1253 119 1176L25 1376Q182 1483 373 1483Q538 1483 633 1392T729 1137Q729 1023 696 944T559
752Q492 679 474 640T455 532V471H219ZM172 137Q172 216 214 258T338 301Q420 301 462 258T504 137Q504 61 461 17T338 -27Q258 -27 215 16T172 137Z" />
<glyph unicode="@" glyph-name="at" horiz-adv-x="1485" d="M1411 748Q1411 504 1329 368T1098 231Q1029 231 977 269T909 371H901Q867 308 814 270T692 231Q569 231 500 323T430 604Q430 827 528 960T793 1094Q911 1094 1049 1051L1028 585V547Q1028 465 1045
434T1100 403Q1150 403 1179 496T1208 750Q1208 1024 1098 1161T786 1298Q637 1298 521 1210T342 963T279 604Q279 325 401 169T739 12Q917 12 1104 102V-80Q939 -168 737 -168Q535 -168 385 -77T154 188T74 594Q74 854 163 1056T417 1367T791 1477Q1085 1477 1248
1285T1411 748ZM637 604Q637 508 659 456T725 403Q775 403 799 471T831 682L844 911Q820 922 782 922Q717 922 677 832T637 604Z" />
<glyph unicode="A" glyph-name="A" horiz-adv-x="1094" d="M821 0L737 369H356L272 0H0L362 1468H731L1094 0H821ZM686 610L608 950Q601 981 577 1105T547 1272Q534 1186 514 1083T410 610H686Z" />
<glyph unicode="B" glyph-name="B" horiz-adv-x="1038" d="M129 1462H502Q730 1462 834 1374T938 1092Q938 965 883 880T733 776V766Q857 735 912 650T967 424Q967 225 861 113T569 0H129V1462ZM385 874H510Q596 874 631 920T666 1057Q666 1148 626 1187T500 1227H385V874ZM385
647V238H522Q607 238 648 290T690 451Q690 647 518 647H385Z" />
<glyph unicode="C" glyph-name="C" horiz-adv-x="948" d="M614 1245Q497 1245 430 1108T362 727Q362 219 627 219Q743 219 870 293V51Q763 -20 596 -20Q349 -20 217 176T84 729Q84 1085 220 1284T600 1483Q680 1483 753 1461T911 1384L821 1163Q776 1194 725 1219T614
1245Z" />
<glyph unicode="D" glyph-name="D" horiz-adv-x="1143" d="M1059 745Q1059 383 912 192T487 0H129V1462H520Q775 1462 917 1274T1059 745ZM780 737Q780 1227 510 1227H401V238H489Q638 238 709 362T780 737Z" />
<glyph unicode="E" glyph-name="E" horiz-adv-x="872" d="M788 0H129V1462H788V1227H401V879H760V643H401V238H788V0Z" />
<glyph unicode="F" glyph-name="F" horiz-adv-x="838" d="M399 0H129V1462H784V1227H399V821H758V586H399V0Z" />
<glyph unicode="G" glyph-name="G" horiz-adv-x="1112" d="M571 811H1018V61Q828 -20 614 -20Q359 -20 222 174T84 733Q84 1085 241 1284T682 1483Q857 1483 1016 1393L930 1171Q806 1243 698 1243Q543 1243 453 1105T362 727Q362 481 427 350T618 219Q684 219
752 236V571H571V811Z" />
<glyph unicode="H" glyph-name="H" horiz-adv-x="1161" d="M1032 0H760V641H401V0H129V1462H401V881H760V1462H1032V0Z" />
<glyph unicode="I" glyph-name="I" horiz-adv-x="614" d="M178 0V1462H434V0H178Z" />
<glyph unicode="J" glyph-name="J" horiz-adv-x="530" d="M14 -422Q-92 -422 -154 -397V-160Q-89 -180 -31 -180Q52 -180 90 -127T129 31V1462H401V45Q401 -99 353 -205T216 -366T14 -422Z" />
<glyph unicode="K" glyph-name="K" horiz-adv-x="1040" d="M1040 0H750L510 625L401 516V0H129V1462H401V737L496 956L745 1462H1036L698 829L1040 0Z" />
<glyph unicode="L" glyph-name="L" horiz-adv-x="823" d="M129 0V1462H401V238H778V0H129Z" />
<glyph unicode="M" glyph-name="M" horiz-adv-x="1606" d="M651 0L373 1245H362Q381 1101 381 981V0H129V1462H547L797 313H805L1053 1462H1477V0H1219V991Q1219 1114 1233 1243H1225L948 0H651Z" />
<glyph unicode="N" glyph-name="N" horiz-adv-x="1282" d="M1153 0H821L369 1059H356Q381 938 381 799V0H129V1462H463L911 414H922Q903 519 903 664V1462H1153V0Z" />
<glyph unicode="O" glyph-name="O" horiz-adv-x="1219" d="M1135 733Q1135 370 999 175T610 -20Q356 -20 220 174T84 735Q84 1098 220 1291T612 1485Q865 1485 1000 1291T1135 733ZM362 733Q362 483 425 352T610 221Q856 221 856 733Q856 1245 612 1245Q488 1245
425 1115T362 733Z" />
<glyph unicode="P" glyph-name="P" horiz-adv-x="981" d="M926 1012Q926 779 809 655T469 530H401V0H129V1462H500Q926 1462 926 1012ZM401 766H453Q553 766 602 821T651 1001Q651 1116 606 1171T467 1227H401V766Z" />
<glyph unicode="Q" glyph-name="Q" horiz-adv-x="1219" d="M1135 733Q1135 482 1069 309T872 51L1141 -348H827L625 -20H610Q356 -20 220 174T84 735Q84 1098 220 1291T612 1485Q865 1485 1000 1291T1135 733ZM362 733Q362 483 425 352T610 221Q856 221 856 733Q856
1245 612 1245Q488 1245 425 1115T362 733Z" />
<glyph unicode="R" glyph-name="R" horiz-adv-x="1024" d="M401 569V0H129V1462H485Q711 1462 818 1355T926 1028Q926 751 739 641L1020 0H729L498 569H401ZM401 803H471Q567 803 609 857T651 1020Q651 1132 607 1179T469 1227H401V803Z" />
<glyph unicode="S" glyph-name="S" horiz-adv-x="846" d="M795 403Q795 198 692 89T393 -20Q202 -20 68 55V324Q232 217 369 217Q447 217 486 260T526 377Q526 450 479 510T324 645Q230 710 182 769T107 903T80 1075Q80 1263 184 1373T465 1483Q633 1483 788 1389L698
1171Q650 1199 598 1221T485 1243Q419 1243 384 1200T348 1081Q348 1007 390 952T539 827Q682 731 738 631T795 403Z" />
<glyph unicode="T" glyph-name="T" horiz-adv-x="885" d="M578 0H307V1223H27V1462H858V1223H578V0Z" />
<glyph unicode="U" glyph-name="U" horiz-adv-x="1151" d="M1028 1462V516Q1028 255 910 118T569 -20Q351 -20 237 116T123 520V1462H393V500Q393 221 578 221Q664 221 711 292T758 494V1462H1028Z" />
<glyph unicode="V" glyph-name="V" horiz-adv-x="1032" d="M758 1462H1032L688 0H342L0 1462H274L465 569Q491 455 516 242Q537 423 569 569L758 1462Z" />
<glyph unicode="W" glyph-name="W" horiz-adv-x="1622" d="M1341 0H1001L858 766Q825 923 811 1137L803 1063L762 762L623 0H283L18 1462H285L416 637Q435 513 467 248Q492 516 514 631L670 1462H952L1108 631Q1139 446 1157 246Q1192 542 1208 637L1335 1462H1604L1341
0Z" />
<glyph unicode="X" glyph-name="X" horiz-adv-x="969" d="M969 0H686L477 524L283 0H0L334 760L25 1462H299L492 981L659 1462H944L635 748L969 0Z" />
<glyph unicode="Y" glyph-name="Y" horiz-adv-x="961" d="M481 885L676 1462H961L614 586V0H346V575L0 1462H287L481 885Z" />
<glyph unicode="Z" glyph-name="Z" horiz-adv-x="877" d="M834 0H43V190L510 1225H57V1462H819V1272L352 238H834V0Z" />
<glyph unicode="[" glyph-name="bracketleft" horiz-adv-x="649" d="M602 -324H133V1462H602V1264H379V-125H602V-324Z" />
<glyph unicode="\" glyph-name="backslash" horiz-adv-x="829" d="M272 1462L817 0H559L14 1462H272Z" />
<glyph unicode="]" glyph-name="bracketright" horiz-adv-x="649" d="M47 -125H270V1264H47V1462H516V-324H47V-125Z" />
<glyph unicode="^" glyph-name="asciicircum" horiz-adv-x="1090" d="M14 526L451 1470H586L1079 526H854L524 1186L236 526H14Z" />
<glyph unicode="_" glyph-name="underscore" horiz-adv-x="696" d="M700 -324H-4V-184H700V-324Z" />
<glyph unicode="`" glyph-name="grave" horiz-adv-x="1114" d="M614 1241Q539 1301 438 1401T311 1548V1569H629Q656 1509 709 1414T801 1268V1241H614Z" />
<glyph unicode="a" glyph-name="a" horiz-adv-x="956" d="M659 0L606 152H600Q541 54 478 17T319 -20Q196 -20 126 72T55 328Q55 504 151 589T440 684L588 690V770Q588 926 453 926Q353 926 223 848L131 1032Q297 1137 492 1137Q669 1137 761 1036T854 748V0H659ZM428
188Q501 188 544 253T588 428V522L506 518Q415 513 373 466T330 326Q330 188 428 188Z" />
<glyph unicode="b" glyph-name="b" horiz-adv-x="1016" d="M616 1135Q768 1135 855 984T942 559Q942 282 855 131T612 -20Q537 -20 480 12T371 127H354L309 0H113V1556H379V1192Q379 1169 378 1144T365 969H379Q428 1061 485 1098T616 1135ZM524 909Q448 909 415
838T379 588V561Q379 367 413 288T526 209Q670 209 670 563Q670 909 524 909Z" />
<glyph unicode="c" glyph-name="c" horiz-adv-x="760" d="M481 -20Q282 -20 178 125T74 551Q74 845 172 990T477 1135Q539 1135 607 1117T729 1065L653 858Q570 907 506 907Q421 907 384 819T346 553Q346 380 383 295T504 209Q604 209 713 279V45Q608 -20 481 -20Z" />
<glyph unicode="d" glyph-name="d" horiz-adv-x="1016" d="M406 -20Q252 -20 163 132T74 555Q74 827 161 981T401 1135Q477 1135 532 1098T635 971H651Q639 1123 639 1184V1556H905V0H707L662 145H653Q568 -20 406 -20ZM492 205Q566 205 600 272T637 518V553Q637
747 603 826T489 905Q415 905 382 815T348 551Q348 378 382 292T492 205Z" />
<glyph unicode="e" glyph-name="e" horiz-adv-x="942" d="M524 -20Q315 -20 195 128T74 549Q74 825 183 980T487 1135Q669 1135 774 1003T879 631V489H344Q347 340 405 268T565 195Q695 195 831 276V57Q703 -20 524 -20ZM485 930Q428 930 391 870T348 682H618Q616
804 581 867T485 930Z" />
<glyph unicode="f" glyph-name="f" horiz-adv-x="612" d="M608 903H424V0H158V903H29V1036L158 1116V1200Q158 1386 235 1476T483 1567Q591 1567 684 1522L614 1319Q564 1343 512 1343Q466 1343 445 1307T424 1196V1114H608V903Z" />
<glyph unicode="g" glyph-name="g" horiz-adv-x="936" d="M915 1112V956L782 926Q821 856 821 750Q821 573 725 473T457 373Q407 373 383 381Q364 364 347 343T330 291Q330 221 451 221H612Q754 221 830 145T907 -86Q907 -280 777 -386T403 -492Q218 -492 118
-412T18 -182Q18 -89 75 -19T233 84Q182 104 150 146T117 244Q117 278 127 305T155 357T231 430Q162 472 122 559T82 752Q82 935 178 1035T453 1135Q487 1135 531 1128T598 1112H915ZM260 -162Q260 -228 301 -263T420 -299Q541 -299 601 -253T662 -127Q662 -64
630 -38T508 -12H379Q325 -12 293 -52T260 -162ZM342 750Q342 553 453 553Q561 553 561 752Q561 956 453 956Q342 956 342 750Z" />
<glyph unicode="h" glyph-name="h" horiz-adv-x="1038" d="M668 0V664Q668 909 545 909Q453 909 416 813T379 535V0H113V1556H379V1210Q379 1143 367 971H381Q461 1135 627 1135Q780 1135 858 1032T936 727V0H668Z" />
<glyph unicode="i" glyph-name="i" horiz-adv-x="496" d="M381 0H115V1114H381V0ZM104 1405Q104 1471 142 1509T250 1548Q315 1548 354 1510T393 1405Q393 1337 353 1300T250 1262Q184 1262 144 1299T104 1405Z" />
<glyph unicode="j" glyph-name="j" horiz-adv-x="500" d="M80 -492Q-4 -492 -59 -467V-246Q-13 -264 27 -264Q121 -264 121 -94V1114H387V-129Q387 -303 307 -397T80 -492ZM111 1405Q111 1471 149 1509T256 1548Q323 1548 361 1509T399 1405Q399 1338 360 1300T256
1262Q191 1262 151 1299T111 1405Z" />
<glyph unicode="k" glyph-name="k" horiz-adv-x="965" d="M375 600L442 733L662 1114H944L662 657L963 0H684L483 471L379 377V0H113V1556H379V823L367 600H375Z" />
<glyph unicode="l" glyph-name="l" horiz-adv-x="489" d="M379 0H113V1556H379V0Z" />
<glyph unicode="m" glyph-name="m" horiz-adv-x="1589" d="M1219 0V664Q1219 909 1098 909Q1010 909 972 822T934 541V0H666V664Q666 909 543 909Q457 909 418 822T379 535V0H113V1114H324L356 971H373Q413 1056 482 1095T631 1135Q835 1135 903 942H913Q998 1135
1186 1135Q1334 1135 1410 1031T1487 727V0H1219Z" />
<glyph unicode="n" glyph-name="n" horiz-adv-x="1038" d="M668 0V664Q668 785 639 847T545 909Q459 909 419 824T379 535V0H113V1114H324L356 971H373Q409 1048 476 1091T633 1135Q785 1135 860 1031T936 727V0H668Z" />
<glyph unicode="o" glyph-name="o" horiz-adv-x="1012" d="M938 559Q938 285 822 133T504 -20Q376 -20 278 50T127 251T74 559Q74 830 189 982T508 1135Q705 1135 821 980T938 559ZM346 559Q346 385 384 296T506 207Q666 207 666 559Q666 734 628 820T506 907Q422
907 384 821T346 559Z" />
<glyph unicode="p" glyph-name="p" horiz-adv-x="1016" d="M610 -20Q538 -20 483 12T379 127H365Q381 -9 381 -37V-492H113V1114H319L365 969H377Q460 1135 618 1135Q770 1135 856 985T942 559Q942 288 853 134T610 -20ZM528 909Q450 909 416 837T379 596V561Q379
377 414 293T530 209Q670 209 670 563Q670 737 636 823T528 909Z" />
<glyph unicode="q" glyph-name="q" horiz-adv-x="1016" d="M406 -20Q250 -20 162 132T74 555Q74 828 160 981T399 1135Q477 1135 534 1097T637 971H651L680 1114H905V-492H639V-23Q639 13 651 145H641Q599 59 541 20T406 -20ZM487 203Q566 203 600 275T637 516V553Q637
737 602 821T487 905Q348 905 348 551Q348 374 381 289T487 203Z" />
<glyph unicode="r" glyph-name="r" horiz-adv-x="690" d="M588 1135Q637 1135 684 1120L653 862Q625 872 580 872Q483 872 431 796T379 573V0H113V1114H332L362 940H371Q415 1045 467 1090T588 1135Z" />
<glyph unicode="s" glyph-name="s" horiz-adv-x="766" d="M711 326Q711 163 616 72T334 -20Q169 -20 61 45V276Q116 238 189 213T319 188Q381 188 413 218T446 299Q446 350 412 388T287 481Q166 553 114 634T61 827Q61 969 158 1052T426 1135Q574 1135 705 1057L618
866Q511 924 430 924Q379 924 354 897T328 831Q328 786 359 751T477 664Q581 601 623 557T688 457T711 326Z" />
<glyph unicode="t" glyph-name="t" horiz-adv-x="664" d="M500 205Q556 205 621 233V25Q556 -20 426 -20Q281 -20 211 66T141 326V903H33V1022L172 1118L240 1354H410V1114H612V903H410V317Q410 205 500 205Z" />
<glyph unicode="u" glyph-name="u" horiz-adv-x="1038" d="M715 0L682 143H668Q631 67 563 24T406 -20Q256 -20 179 82T102 387V1114H371V451Q371 329 400 267T494 205Q580 205 619 291T659 580V1114H928V0H715Z" />
<glyph unicode="v" glyph-name="v" horiz-adv-x="913" d="M291 0L0 1114H276L418 469Q427 424 439 338T455 213H459Q460 243 467 299T483 402T637 1114H913L621 0H291Z" />
<glyph unicode="w" glyph-name="w" horiz-adv-x="1479" d="M889 0L778 647L739 920H735Q720 787 711 728T584 0H242L20 1114H287L389 500Q407 398 422 201H428Q430 254 442 362T459 502L569 1114H911L1020 500Q1039 402 1053 201H1057Q1071 380 1092 500L1198
1114H1458L1235 0H889Z" />
<glyph unicode="x" glyph-name="x" horiz-adv-x="889" d="M305 569L27 1114H303L451 774L588 1114H862L582 569L874 0H596L438 356L291 0H14L305 569Z" />
<glyph unicode="y" glyph-name="y" horiz-adv-x="913" d="M0 1114H276L430 485Q453 401 467 250H473Q474 274 482 335T495 432T633 1114H913L594 -80Q536 -300 440 -396T184 -492Q105 -492 43 -475V-252Q84 -264 135 -264Q269 -264 311 -88L330 -18L0 1114Z" />
<glyph unicode="z" glyph-name="z" horiz-adv-x="731" d="M690 0H41V170L383 899H63V1114H676V926L344 215H690V0Z" />
<glyph unicode="{" glyph-name="braceleft" horiz-adv-x="737" d="M283 276Q283 375 216 416T25 457V680Q149 680 216 720T283 852V860V1180Q283 1288 324 1347T457 1434T705 1462V1251Q604 1248 567 1214T530 1106V803Q527 609 299 575V563Q530 529 530 348V336V33Q530
-40 566 -75T705 -113V-324Q547 -324 457 -297T325 -209T283 -41V276Z" />
<glyph unicode="|" glyph-name="bar" horiz-adv-x="1038" d="M416 1552H623V-471H416V1552Z" />
<glyph unicode="}" glyph-name="braceright" horiz-adv-x="737" d="M457 -41Q457 -197 362 -260T33 -324V-113Q135 -110 172 -76T209 33V336V345Q209 436 268 491T442 563V575Q213 609 209 803V1106Q209 1180 172 1214T33 1251V1462Q267 1462 362 1399T457 1180V860V852Q457
760 522 720T713 680V457Q588 457 523 416T457 276V-41Z" />
<glyph unicode="~" glyph-name="asciitilde" horiz-adv-x="918" d="M264 678Q176 678 74 557V776Q164 885 281 885Q324 885 361 875T485 821Q552 787 584 777T657 766Q744 766 844 887V668Q763 559 637 559Q586 559 538 575T430 623Q348 664 322 671T264 678Z" />
<glyph unicode="&#xa0;" glyph-name="nbspace" horiz-adv-x="532" />
<glyph unicode="&#xa1;" glyph-name="exclamdown" horiz-adv-x="555" d="M164 621H385L436 -369H113L164 621ZM442 954Q442 875 399 833T274 791Q196 791 154 833T111 954Q111 1032 154 1075T274 1118Q356 1118 399 1075T442 954Z" />
<glyph unicode="&#xa2;" glyph-name="cent" horiz-adv-x="948" d="M786 233Q709 183 612 172V-20H446V180Q147 259 147 737Q147 989 220 1132T446 1311V1479H612V1319Q718 1303 805 1253L727 1044Q642 1094 580 1094Q495 1094 458 1007T420 739Q420 568 457 482T578
395Q678 395 786 467V233Z" />
<glyph unicode="&#xa3;" glyph-name="sterling" horiz-adv-x="948" d="M598 1483Q755 1483 881 1411L797 1200Q705 1253 614 1253Q500 1253 500 1067V854H741V651H500V518Q500 427 470 360T369 242H903V0H76V229Q168 278 200 337T233 494V651H78V854H233V1073Q233
1272 326 1377T598 1483Z" />
<glyph unicode="&#xa4;" glyph-name="currency" horiz-adv-x="1112" d="M162 723Q162 825 219 924L90 1051L227 1188L354 1061Q447 1116 555 1116Q662 1116 754 1059L883 1188L1022 1055L893 926Q948 833 948 723Q948 609 893 520L1018 395L883 260L754 385Q661
332 555 332Q435 332 352 385L227 262L92 397L219 522Q162 614 162 723ZM356 723Q356 640 414 582T555 524Q640 524 699 582T758 723Q758 807 699 865T555 924Q472 924 414 866T356 723Z" />
<glyph unicode="&#xa5;" glyph-name="yen" horiz-adv-x="948" d="M475 844L659 1462H942L666 711H852V541H608V399H852V229H608V0H342V229H96V399H342V541H96V711H283L6 1462H289L475 844Z" />
<glyph unicode="&#xa6;" glyph-name="brokenbar" horiz-adv-x="1038" d="M416 1552H623V743H416V1552ZM416 338H623V-471H416V338Z" />
<glyph unicode="&#xa7;" glyph-name="section" horiz-adv-x="872" d="M94 776Q94 855 128 918T223 1022Q164 1062 132 1128T100 1270Q100 1403 192 1481T446 1559Q543 1559 621 1539T772 1489L707 1305Q644 1332 580 1354T444 1376Q386 1376 358 1348T330 1274Q330
1237 361 1203T465 1128L549 1079Q674 1008 726 930T778 752Q778 585 653 492Q709 451 738 402T768 281Q768 133 674 49T403 -35Q290 -35 216 -21T82 23V215Q234 143 377 143Q458 143 497 171T537 262Q537 296 506 328T403 402Q260 482 205 532T122 642T94 776ZM307
797Q307 741 339 703T453 616L514 580Q557 642 557 717Q557 780 508 835T373 934Q347 918 327 882T307 797Z" />
<glyph unicode="&#xa8;" glyph-name="dieresis" horiz-adv-x="1130" d="M233 1403Q233 1464 268 1498T365 1532Q427 1532 462 1497T498 1403Q498 1346 463 1311T365 1276Q303 1276 268 1309T233 1403ZM631 1403Q631 1463 666 1497T764 1532Q825 1532 861 1498T897
1403Q897 1344 862 1310T764 1276Q702 1276 667 1310T631 1403Z" />
<glyph unicode="&#xa9;" glyph-name="copyright" horiz-adv-x="1688" d="M887 1018Q785 1018 730 943T674 731Q674 591 723 517T887 442Q943 442 1011 458T1126 500V319Q1010 264 881 264Q680 264 569 387T457 733Q457 952 567 1074T874 1196Q1016 1196 1169 1122L1098
961Q987 1018 887 1018ZM92 731Q92 931 192 1106T467 1382T844 1483Q1041 1483 1214 1386T1491 1114T1595 731Q1595 527 1495 355T1222 81T844 -20Q637 -20 462 83T190 360T92 731ZM227 731Q227 566 310 423T535 197T844 115Q1010 115 1153 197T1378 422T1460 731Q1460
897 1378 1039T1153 1265T844 1348Q679 1348 536 1266T310 1040T227 731Z" />
<glyph unicode="&#xaa;" glyph-name="ordfeminine" horiz-adv-x="682" d="M469 770L442 874Q410 819 361 789T252 758Q163 758 110 811T57 977Q57 1085 123 1138T336 1200L418 1204V1212Q418 1331 315 1331Q246 1331 152 1274L96 1401Q224 1479 352 1479Q468 1479
527 1411T586 1217V770H469ZM229 979Q229 901 293 901Q350 901 384 941T418 1053V1092L346 1085Q288 1080 259 1055T229 979Z" />
<glyph unicode="&#xab;" glyph-name="guillemotleft" horiz-adv-x="1141" d="M74 569L381 1016L580 905L360 557L580 209L381 98L74 543V569ZM561 569L868 1016L1067 905L848 557L1067 209L868 98L561 543V569Z" />
<glyph unicode="&#xac;" glyph-name="logicalnot" horiz-adv-x="918" d="M811 250H616V618H106V825H811V250Z" />
<glyph unicode="&#xad;" glyph-name="uni00AD" horiz-adv-x="647" d="M72 432V666H575V432H72Z" />
<glyph unicode="&#xae;" glyph-name="registered" horiz-adv-x="1688" d="M1147 907Q1147 737 999 674L1018 645L1237 274H999L815 616H758V274H543V1186H801Q981 1186 1064 1118T1147 907ZM758 776H797Q868 776 899 805T930 903Q930 973 897 998T795 1024H758V776ZM92
731Q92 931 192 1106T467 1382T844 1483Q1041 1483 1214 1386T1491 1114T1595 731Q1595 527 1495 355T1222 81T844 -20Q637 -20 462 83T190 360T92 731ZM227 731Q227 566 310 423T535 197T844 115Q1010 115 1153 197T1378 422T1460 731Q1460 897 1378 1039T1153
1265T844 1348Q679 1348 536 1266T310 1040T227 731Z" />
<glyph unicode="&#xaf;" glyph-name="overscore" horiz-adv-x="1024" d="M1030 1556H-6V1745H1030V1556Z" />
<glyph unicode="&#xb0;" glyph-name="degree" horiz-adv-x="831" d="M76 1143Q76 1282 175 1382T416 1483Q555 1483 655 1383T756 1143Q756 1002 657 904T416 805Q273 805 175 903T76 1143ZM252 1143Q252 1076 301 1029T416 981Q482 981 530 1028T578 1143Q578
1211 531 1259T416 1307Q349 1307 301 1258T252 1143Z" />
<glyph unicode="&#xb1;" glyph-name="plusminus" horiz-adv-x="918" d="M360 618H106V825H360V1198H557V825H811V618H557V250H360V618ZM106 0V207H811V0H106Z" />
<glyph unicode="&#xb2;" glyph-name="twosuperior" horiz-adv-x="688" d="M623 586H53V743L252 965Q347 1072 374 1118T401 1217Q401 1259 378 1282T315 1305Q240 1305 152 1217L49 1356Q176 1483 338 1483Q460 1483 529 1416T598 1233Q598 1152 560 1079T399
879L297 772H623V586Z" />
<glyph unicode="&#xb3;" glyph-name="threesuperior" horiz-adv-x="688" d="M588 1251Q588 1102 440 1051V1040Q529 1019 571 962T614 831Q614 710 536 640T307 569Q151 569 63 625V801Q169 729 293 729Q428 729 428 846Q428 958 274 958H176V1108H260Q333 1108
370 1135T408 1225Q408 1268 384 1293T313 1319Q269 1319 231 1300T143 1241L57 1374Q128 1433 194 1457T334 1481Q445 1481 516 1419T588 1251Z" />
<glyph unicode="&#xb4;" glyph-name="acute" horiz-adv-x="1114" d="M311 1241V1268Q352 1321 406 1419T483 1569H801V1548Q777 1505 682 1410T498 1241H311Z" />
<glyph unicode="&#xb5;" glyph-name="mu" horiz-adv-x="1038" d="M371 414Q371 300 401 253T494 205Q580 205 619 291T659 580V1114H928V0H715L682 143H666Q603 -20 467 -20Q408 -20 362 20Q371 -110 371 -252V-492H102V1114H371V414Z" />
<glyph unicode="&#xb6;" glyph-name="paragraph" horiz-adv-x="1083" d="M948 -260H795V1364H633V-260H479V559Q434 541 373 541Q213 541 138 666T63 1042Q63 1299 143 1427T399 1556H948V-260Z" />
<glyph unicode="&#xb7;" glyph-name="middot" horiz-adv-x="553" d="M111 723Q111 801 152 844T276 887Q358 887 400 845T442 723Q442 645 399 602T276 559Q195 559 153 602T111 723Z" />
<glyph unicode="&#xb8;" glyph-name="cedilla" horiz-adv-x="416" d="M397 -260Q397 -367 326 -429T106 -492Q33 -492 -25 -471V-317Q36 -334 96 -334Q184 -334 184 -268Q184 -184 27 -158L106 0H279L242 -76Q310 -93 353 -139T397 -260Z" />
<glyph unicode="&#xb9;" glyph-name="onesuperior" horiz-adv-x="688" d="M500 586H303V1047L306 1159L311 1255Q304 1245 289 1231T158 1118L66 1235L338 1462H500V586Z" />
<glyph unicode="&#xba;" glyph-name="ordmasculine" horiz-adv-x="686" d="M625 1120Q625 949 549 854T342 758Q212 758 137 856T61 1120Q61 1290 136 1384T344 1479Q472 1479 548 1383T625 1120ZM233 1120Q233 1014 260 963T344 911Q401 911 427 962T453 1120Q453
1226 427 1275T344 1325Q287 1325 260 1276T233 1120Z" />
<glyph unicode="&#xbb;" glyph-name="guillemotright" horiz-adv-x="1141" d="M1067 543L760 98L561 209L780 557L561 905L760 1016L1067 569V543ZM580 543L272 98L74 209L293 557L74 905L272 1016L580 569V543Z" />
<glyph unicode="&#xbc;" glyph-name="onequarter" horiz-adv-x="1597" d="M1481 160H1370V1H1174V160H829V306L1176 883H1370V320H1481V160ZM1174 320V490L1178 677Q1166 644 1144 593T1108 521L987 320H1174ZM749 586H552V1047L555 1159L560 1255Q553 1245 538
1231T407 1118L315 1235L587 1462H749V586ZM1222 1462L479 0H276L1018 1462H1222Z" />
<glyph unicode="&#xbd;" glyph-name="onehalf" horiz-adv-x="1597" d="M1518 1H948V158L1147 380Q1242 487 1269 533T1296 632Q1296 674 1273 697T1210 720Q1135 720 1047 632L944 771Q1071 898 1233 898Q1355 898 1424 831T1493 648Q1493 567 1455 494T1294 294L1192
187H1518V1ZM749 586H552V1047L555 1159L560 1255Q553 1245 538 1231T407 1118L315 1235L587 1462H749V586ZM1222 1462L479 0H276L1018 1462H1222Z" />
<glyph unicode="&#xbe;" glyph-name="threequarters" horiz-adv-x="1597" d="M1487 160H1376V1H1180V160H835V306L1182 883H1376V320H1487V160ZM1180 320V490L1184 677Q1172 644 1150 593T1114 521L993 320H1180ZM592 1251Q592 1102 444 1051V1040Q533 1019 575
962T618 831Q618 710 540 640T311 569Q155 569 67 625V801Q173 729 297 729Q432 729 432 846Q432 958 278 958H180V1108H264Q337 1108 374 1135T412 1225Q412 1268 388 1293T317 1319Q273 1319 235 1300T147 1241L61 1374Q132 1433 198 1457T338 1481Q449 1481
520 1419T592 1251ZM1257 1462L514 0H311L1053 1462H1257Z" />
<glyph unicode="&#xbf;" glyph-name="questiondown" horiz-adv-x="782" d="M563 621V549Q563 455 534 384T426 227Q352 146 332 100T311 -16Q311 -79 342 -120T436 -162Q545 -162 662 -84L758 -285Q600 -391 410 -391Q243 -391 148 -301T53 -45Q53 31 67 89T111
198T223 340Q289 410 308 451T328 559V621H563ZM610 954Q610 875 567 833T442 791Q364 791 322 833T279 954Q279 1032 322 1075T442 1118Q524 1118 567 1075T610 954Z" />
<glyph unicode="&#xc0;" glyph-name="Agrave" horiz-adv-x="1094" d="M821 0L737 369H356L272 0H0L362 1468H731L1094 0H821ZM686 610L608 950Q601 981 577 1105T547 1272Q534 1186 514 1083T410 610H686ZM496 1579Q421 1639 320 1739T193 1886V1907H511Q538 1847
591 1752T683 1606V1579H496Z" />
<glyph unicode="&#xc1;" glyph-name="Aacute" horiz-adv-x="1094" d="M821 0L737 369H356L272 0H0L362 1468H731L1094 0H821ZM686 610L608 950Q601 981 577 1105T547 1272Q534 1186 514 1083T410 610H686ZM405 1579V1606Q446 1659 500 1757T577 1907H895V1886Q871
1843 776 1748T592 1579H405Z" />
<glyph unicode="&#xc2;" glyph-name="Acircumflex" horiz-adv-x="1094" d="M821 0L737 369H356L272 0H0L362 1468H731L1094 0H821ZM686 610L608 950Q601 981 577 1105T547 1272Q534 1186 514 1083T410 610H686ZM735 1579Q639 1651 546 1757Q457 1657 360 1579H192V1606Q369
1829 409 1907H686Q733 1820 903 1606V1579H735Z" />
<glyph unicode="&#xc3;" glyph-name="Atilde" horiz-adv-x="1094" d="M821 0L737 369H356L272 0H0L362 1468H731L1094 0H821ZM686 610L608 950Q601 981 577 1105T547 1272Q534 1186 514 1083T410 610H686ZM429 1686Q398 1686 380 1663T351 1577H210Q221 1730 278
1804T429 1878Q472 1878 506 1862T571 1825T629 1789T687 1772Q721 1772 736 1798T763 1880H904Q893 1728 835 1654T685 1579Q641 1579 607 1595T543 1632T486 1669T429 1686Z" />
<glyph unicode="&#xc4;" glyph-name="Adieresis" horiz-adv-x="1094" d="M821 0L737 369H356L272 0H0L362 1468H731L1094 0H821ZM686 610L608 950Q601 981 577 1105T547 1272Q534 1186 514 1083T410 610H686ZM216 1741Q216 1802 251 1836T348 1870Q410 1870 445
1835T481 1741Q481 1684 446 1649T348 1614Q286 1614 251 1647T216 1741ZM614 1741Q614 1801 649 1835T747 1870Q808 1870 844 1836T880 1741Q880 1682 845 1648T747 1614Q685 1614 650 1648T614 1741Z" />
<glyph unicode="&#xc5;" glyph-name="Aring" horiz-adv-x="1094" d="M821 0L737 369H356L272 0H0L362 1468H731L1094 0H821ZM686 610L608 950Q601 981 577 1105T547 1272Q534 1186 514 1083T410 610H686ZM1052 1571Q1052 1464 983 1400T802 1335Q692 1335 625
1397T558 1569Q558 1677 625 1739T802 1802Q911 1802 981 1738T1052 1571ZM902 1569Q902 1615 874 1642T802 1669Q759 1669 731 1642T702 1569Q702 1522 727 1495T802 1468Q845 1468 873 1495T902 1569Z" />
<glyph unicode="&#xc6;" glyph-name="AE" horiz-adv-x="1425" d="M1339 0H684V369H385L272 0H0L473 1462H1339V1227H956V879H1311V643H956V238H1339V0ZM645 1227L631 1178L461 610H684V1227H645Z" />
<glyph unicode="&#xc7;" glyph-name="Ccedilla" horiz-adv-x="948" d="M614 1245Q497 1245 430 1108T362 727Q362 219 627 219Q743 219 870 293V51Q763 -20 596 -20Q349 -20 217 176T84 729Q84 1085 220 1284T600 1483Q680 1483 753 1461T911 1384L821 1163Q776
1194 725 1219T614 1245ZM747 -260Q747 -367 676 -429T456 -492Q383 -492 325 -471V-317Q386 -334 446 -334Q534 -334 534 -268Q534 -184 377 -158L456 0H629L592 -76Q660 -93 703 -139T747 -260Z" />
<glyph unicode="&#xc8;" glyph-name="Egrave" horiz-adv-x="872" d="M788 0H129V1462H788V1227H401V879H760V643H401V238H788V0ZM392 1579Q317 1639 216 1739T89 1886V1907H407Q434 1847 487 1752T579 1606V1579H392Z" />
<glyph unicode="&#xc9;" glyph-name="Eacute" horiz-adv-x="872" d="M788 0H129V1462H788V1227H401V879H760V643H401V238H788V0ZM336 1579V1606Q377 1659 431 1757T508 1907H826V1886Q802 1843 707 1748T523 1579H336Z" />
<glyph unicode="&#xca;" glyph-name="Ecircumflex" horiz-adv-x="872" d="M788 0H129V1462H788V1227H401V879H760V643H401V238H788V0ZM646 1579Q550 1651 457 1757Q368 1657 271 1579H103V1606Q280 1829 320 1907H597Q644 1820 814 1606V1579H646Z" />
<glyph unicode="&#xcb;" glyph-name="Edieresis" horiz-adv-x="872" d="M788 0H129V1462H788V1227H401V879H760V643H401V238H788V0ZM130 1741Q130 1802 165 1836T262 1870Q324 1870 359 1835T395 1741Q395 1684 360 1649T262 1614Q200 1614 165 1647T130 1741ZM528
1741Q528 1801 563 1835T661 1870Q722 1870 758 1836T794 1741Q794 1682 759 1648T661 1614Q599 1614 564 1648T528 1741Z" />
<glyph unicode="&#xcc;" glyph-name="Igrave" horiz-adv-x="614" d="M178 0V1462H434V0H178ZM253 1579Q178 1639 77 1739T-50 1886V1907H268Q295 1847 348 1752T440 1606V1579H253Z" />
<glyph unicode="&#xcd;" glyph-name="Iacute" horiz-adv-x="614" d="M178 0V1462H434V0H178ZM167 1579V1606Q208 1659 262 1757T339 1907H657V1886Q633 1843 538 1748T354 1579H167Z" />
<glyph unicode="&#xce;" glyph-name="Icircumflex" horiz-adv-x="614" d="M178 0V1462H434V0H178ZM495 1579Q399 1651 306 1757Q217 1657 120 1579H-48V1606Q129 1829 169 1907H446Q493 1820 663 1606V1579H495Z" />
<glyph unicode="&#xcf;" glyph-name="Idieresis" horiz-adv-x="614" d="M178 0V1462H434V0H178ZM-24 1741Q-24 1802 11 1836T108 1870Q170 1870 205 1835T241 1741Q241 1684 206 1649T108 1614Q46 1614 11 1647T-24 1741ZM374 1741Q374 1801 409 1835T507 1870Q568
1870 604 1836T640 1741Q640 1682 605 1648T507 1614Q445 1614 410 1648T374 1741Z" />
<glyph unicode="&#xd0;" glyph-name="Eth" horiz-adv-x="1143" d="M0 842H129V1462H520Q775 1462 917 1274T1059 745Q1059 383 912 192T487 0H129V604H0V842ZM780 737Q780 1227 510 1227H401V842H584V604H401V238H489Q638 238 709 362T780 737Z" />
<glyph unicode="&#xd1;" glyph-name="Ntilde" horiz-adv-x="1282" d="M1153 0H821L369 1059H356Q381 938 381 799V0H129V1462H463L911 414H922Q903 519 903 664V1462H1153V0ZM522 1686Q491 1686 473 1663T444 1577H303Q314 1730 371 1804T522 1878Q565 1878 599
1862T664 1825T722 1789T780 1772Q814 1772 829 1798T856 1880H997Q986 1728 928 1654T778 1579Q734 1579 700 1595T636 1632T579 1669T522 1686Z" />
<glyph unicode="&#xd2;" glyph-name="Ograve" horiz-adv-x="1219" d="M1135 733Q1135 370 999 175T610 -20Q356 -20 220 174T84 735Q84 1098 220 1291T612 1485Q865 1485 1000 1291T1135 733ZM362 733Q362 483 425 352T610 221Q856 221 856 733Q856 1245 612 1245Q488
1245 425 1115T362 733ZM547 1579Q472 1639 371 1739T244 1886V1907H562Q589 1847 642 1752T734 1606V1579H547Z" />
<glyph unicode="&#xd3;" glyph-name="Oacute" horiz-adv-x="1219" d="M1135 733Q1135 370 999 175T610 -20Q356 -20 220 174T84 735Q84 1098 220 1291T612 1485Q865 1485 1000 1291T1135 733ZM362 733Q362 483 425 352T610 221Q856 221 856 733Q856 1245 612 1245Q488
1245 425 1115T362 733ZM477 1579V1606Q518 1659 572 1757T649 1907H967V1886Q943 1843 848 1748T664 1579H477Z" />
<glyph unicode="&#xd4;" glyph-name="Ocircumflex" horiz-adv-x="1219" d="M1135 733Q1135 370 999 175T610 -20Q356 -20 220 174T84 735Q84 1098 220 1291T612 1485Q865 1485 1000 1291T1135 733ZM362 733Q362 483 425 352T610 221Q856 221 856 733Q856 1245
612 1245Q488 1245 425 1115T362 733ZM795 1579Q699 1651 606 1757Q517 1657 420 1579H252V1606Q429 1829 469 1907H746Q793 1820 963 1606V1579H795Z" />
<glyph unicode="&#xd5;" glyph-name="Otilde" horiz-adv-x="1219" d="M1135 733Q1135 370 999 175T610 -20Q356 -20 220 174T84 735Q84 1098 220 1291T612 1485Q865 1485 1000 1291T1135 733ZM362 733Q362 483 425 352T610 221Q856 221 856 733Q856 1245 612 1245Q488
1245 425 1115T362 733ZM491 1686Q460 1686 442 1663T413 1577H272Q283 1730 340 1804T491 1878Q534 1878 568 1862T633 1825T691 1789T749 1772Q783 1772 798 1798T825 1880H966Q955 1728 897 1654T747 1579Q703 1579 669 1595T605 1632T548 1669T491 1686Z" />
<glyph unicode="&#xd6;" glyph-name="Odieresis" horiz-adv-x="1219" d="M1135 733Q1135 370 999 175T610 -20Q356 -20 220 174T84 735Q84 1098 220 1291T612 1485Q865 1485 1000 1291T1135 733ZM362 733Q362 483 425 352T610 221Q856 221 856 733Q856 1245 612
1245Q488 1245 425 1115T362 733ZM276 1741Q276 1802 311 1836T408 1870Q470 1870 505 1835T541 1741Q541 1684 506 1649T408 1614Q346 1614 311 1647T276 1741ZM674 1741Q674 1801 709 1835T807 1870Q868 1870 904 1836T940 1741Q940 1682 905 1648T807 1614Q745
1614 710 1648T674 1741Z" />
<glyph unicode="&#xd7;" glyph-name="multiply" horiz-adv-x="918" d="M92 389L338 723L92 1053L244 1165L457 883L672 1165L823 1053L578 723L823 389L672 276L457 565L244 276L92 389Z" />
<glyph unicode="&#xd8;" glyph-name="Oslash" horiz-adv-x="1219" d="M1135 733Q1135 370 999 175T610 -20Q475 -20 369 37L299 -102L133 -25L229 162Q84 355 84 735Q84 1098 220 1291T612 1485Q749 1485 864 1417L936 1559L1102 1483L1001 1286Q1135 1094 1135
733ZM856 733Q856 885 844 969L481 260Q529 221 610 221Q856 221 856 733ZM362 733Q362 575 383 467L754 1196Q701 1245 612 1245Q488 1245 425 1115T362 733Z" />
<glyph unicode="&#xd9;" glyph-name="Ugrave" horiz-adv-x="1151" d="M1028 1462V516Q1028 255 910 118T569 -20Q351 -20 237 116T123 520V1462H393V500Q393 221 578 221Q664 221 711 292T758 494V1462H1028ZM513 1579Q438 1639 337 1739T210 1886V1907H528Q555
1847 608 1752T700 1606V1579H513Z" />
<glyph unicode="&#xda;" glyph-name="Uacute" horiz-adv-x="1151" d="M1028 1462V516Q1028 255 910 118T569 -20Q351 -20 237 116T123 520V1462H393V500Q393 221 578 221Q664 221 711 292T758 494V1462H1028ZM444 1579V1606Q485 1659 539 1757T616 1907H934V1886Q910
1843 815 1748T631 1579H444Z" />
<glyph unicode="&#xdb;" glyph-name="Ucircumflex" horiz-adv-x="1151" d="M1028 1462V516Q1028 255 910 118T569 -20Q351 -20 237 116T123 520V1462H393V500Q393 221 578 221Q664 221 711 292T758 494V1462H1028ZM762 1579Q666 1651 573 1757Q484 1657 387 1579H219V1606Q396
1829 436 1907H713Q760 1820 930 1606V1579H762Z" />
<glyph unicode="&#xdc;" glyph-name="Udieresis" horiz-adv-x="1151" d="M1028 1462V516Q1028 255 910 118T569 -20Q351 -20 237 116T123 520V1462H393V500Q393 221 578 221Q664 221 711 292T758 494V1462H1028ZM243 1741Q243 1802 278 1836T375 1870Q437 1870
472 1835T508 1741Q508 1684 473 1649T375 1614Q313 1614 278 1647T243 1741ZM641 1741Q641 1801 676 1835T774 1870Q835 1870 871 1836T907 1741Q907 1682 872 1648T774 1614Q712 1614 677 1648T641 1741Z" />
<glyph unicode="&#xdd;" glyph-name="Yacute" horiz-adv-x="961" d="M481 885L676 1462H961L614 586V0H346V575L0 1462H287L481 885ZM346 1579V1606Q387 1659 441 1757T518 1907H836V1886Q812 1843 717 1748T533 1579H346Z" />
<glyph unicode="&#xde;" glyph-name="Thorn" horiz-adv-x="981" d="M926 778Q926 545 809 420T469 295H401V0H129V1462H401V1229H498Q926 1229 926 778ZM401 530H453Q553 530 602 586T651 768Q651 995 469 995H401V530Z" />
<glyph unicode="&#xdf;" glyph-name="germandbls" horiz-adv-x="1108" d="M963 1245Q963 1094 857 982L806 929Q750 871 750 836Q750 800 776 767T903 653Q998 577 1031 507T1065 338Q1065 169 965 75T682 -20Q542 -20 451 33V258Q556 188 659 188Q793 188 793
317Q793 372 766 412T651 522Q562 588 524 651T485 799Q485 861 510 912T589 1017Q647 1074 669 1113T692 1200Q692 1268 654 1307T541 1346Q379 1346 379 1143V0H113V1151Q113 1353 225 1460T545 1567Q741 1567 852 1482T963 1245Z" />
<glyph unicode="&#xe0;" glyph-name="agrave" horiz-adv-x="956" d="M659 0L606 152H600Q541 54 478 17T319 -20Q196 -20 126 72T55 328Q55 504 151 589T440 684L588 690V770Q588 926 453 926Q353 926 223 848L131 1032Q297 1137 492 1137Q669 1137 761 1036T854
748V0H659ZM428 188Q501 188 544 253T588 428V522L506 518Q415 513 373 466T330 326Q330 188 428 188ZM449 1241Q374 1301 273 1401T146 1548V1569H464Q491 1509 544 1414T636 1268V1241H449Z" />
<glyph unicode="&#xe1;" glyph-name="aacute" horiz-adv-x="956" d="M659 0L606 152H600Q541 54 478 17T319 -20Q196 -20 126 72T55 328Q55 504 151 589T440 684L588 690V770Q588 926 453 926Q353 926 223 848L131 1032Q297 1137 492 1137Q669 1137 761 1036T854
748V0H659ZM428 188Q501 188 544 253T588 428V522L506 518Q415 513 373 466T330 326Q330 188 428 188ZM362 1241V1268Q403 1321 457 1419T534 1569H852V1548Q828 1505 733 1410T549 1241H362Z" />
<glyph unicode="&#xe2;" glyph-name="acircumflex" horiz-adv-x="956" d="M659 0L606 152H600Q541 54 478 17T319 -20Q196 -20 126 72T55 328Q55 504 151 589T440 684L588 690V770Q588 926 453 926Q353 926 223 848L131 1032Q297 1137 492 1137Q669 1137 761 1036T854
748V0H659ZM428 188Q501 188 544 253T588 428V522L506 518Q415 513 373 466T330 326Q330 188 428 188ZM939 1496Q843 1568 750 1674Q661 1574 564 1496H396V1523Q573 1746 613 1824H890Q937 1737 1107 1523V1496H939Z" />
<glyph unicode="&#xe3;" glyph-name="atilde" horiz-adv-x="956" d="M659 0L606 152H600Q541 54 478 17T319 -20Q196 -20 126 72T55 328Q55 504 151 589T440 684L588 690V770Q588 926 453 926Q353 926 223 848L131 1032Q297 1137 492 1137Q669 1137 761 1036T854
748V0H659ZM428 188Q501 188 544 253T588 428V522L506 518Q415 513 373 466T330 326Q330 188 428 188ZM636 1348Q605 1348 587 1325T558 1239H417Q428 1392 485 1466T636 1540Q679 1540 713 1524T778 1487T836 1451T894 1434Q928 1434 943 1460T970 1542H1111Q1100
1390 1042 1316T892 1241Q848 1241 814 1257T750 1294T693 1331T636 1348Z" />
<glyph unicode="&#xe4;" glyph-name="adieresis" horiz-adv-x="956" d="M659 0L606 152H600Q541 54 478 17T319 -20Q196 -20 126 72T55 328Q55 504 151 589T440 684L588 690V770Q588 926 453 926Q353 926 223 848L131 1032Q297 1137 492 1137Q669 1137 761 1036T854
748V0H659ZM428 188Q501 188 544 253T588 428V522L506 518Q415 513 373 466T330 326Q330 188 428 188ZM420 1403Q420 1464 455 1498T552 1532Q614 1532 649 1497T685 1403Q685 1346 650 1311T552 1276Q490 1276 455 1309T420 1403ZM818 1403Q818 1463 853 1497T951
1532Q1012 1532 1048 1498T1084 1403Q1084 1344 1049 1310T951 1276Q889 1276 854 1310T818 1403Z" />
<glyph unicode="&#xe5;" glyph-name="aring" horiz-adv-x="956" d="M659 0L606 152H600Q541 54 478 17T319 -20Q196 -20 126 72T55 328Q55 504 151 589T440 684L588 690V770Q588 926 453 926Q353 926 223 848L131 1032Q297 1137 492 1137Q669 1137 761 1036T854
748V0H659ZM428 188Q501 188 544 253T588 428V522L506 518Q415 513 373 466T330 326Q330 188 428 188ZM999 1475Q999 1368 930 1304T749 1239Q639 1239 572 1301T505 1473Q505 1581 572 1643T749 1706Q858 1706 928 1642T999 1475ZM849 1473Q849 1519 821 1546T749
1573Q706 1573 678 1546T649 1473Q649 1426 674 1399T749 1372Q792 1372 820 1399T849 1473Z" />
<glyph unicode="&#xe6;" glyph-name="ae" horiz-adv-x="1446" d="M1028 -20Q797 -20 684 160Q627 67 552 24T371 -20Q217 -20 136 68T55 328Q55 504 151 589T440 684L588 690V768Q588 926 453 926Q353 926 223 848L131 1032Q297 1137 492 1137Q657 1137 750 1044Q849
1135 991 1135Q1175 1135 1278 1001T1382 631V489H848Q851 340 909 268T1069 195Q1204 195 1335 276V57Q1208 -20 1028 -20ZM588 522L506 518Q415 513 373 466T330 326Q330 188 428 188Q501 188 544 253T588 428V522ZM991 930Q866 930 854 682H1124Q1122 804 1087
867T991 930Z" />
<glyph unicode="&#xe7;" glyph-name="ccedilla" horiz-adv-x="760" d="M481 -20Q282 -20 178 125T74 551Q74 845 172 990T477 1135Q539 1135 607 1117T729 1065L653 858Q570 907 506 907Q421 907 384 819T346 553Q346 380 383 295T504 209Q604 209 713 279V45Q608
-20 481 -20ZM643 -260Q643 -367 572 -429T352 -492Q279 -492 221 -471V-317Q282 -334 342 -334Q430 -334 430 -268Q430 -184 273 -158L352 0H525L488 -76Q556 -93 599 -139T643 -260Z" />
<glyph unicode="&#xe8;" glyph-name="egrave" horiz-adv-x="942" d="M524 -20Q315 -20 195 128T74 549Q74 825 183 980T487 1135Q669 1135 774 1003T879 631V489H344Q347 340 405 268T565 195Q695 195 831 276V57Q703 -20 524 -20ZM485 930Q428 930 391 870T348
682H618Q616 804 581 867T485 930ZM447 1241Q372 1301 271 1401T144 1548V1569H462Q489 1509 542 1414T634 1268V1241H447Z" />
<glyph unicode="&#xe9;" glyph-name="eacute" horiz-adv-x="942" d="M524 -20Q315 -20 195 128T74 549Q74 825 183 980T487 1135Q669 1135 774 1003T879 631V489H344Q347 340 405 268T565 195Q695 195 831 276V57Q703 -20 524 -20ZM485 930Q428 930 391 870T348
682H618Q616 804 581 867T485 930ZM348 1241V1268Q389 1321 443 1419T520 1569H838V1548Q814 1505 719 1410T535 1241H348Z" />
<glyph unicode="&#xea;" glyph-name="ecircumflex" horiz-adv-x="942" d="M524 -20Q315 -20 195 128T74 549Q74 825 183 980T487 1135Q669 1135 774 1003T879 631V489H344Q347 340 405 268T565 195Q695 195 831 276V57Q703 -20 524 -20ZM485 930Q428 930 391 870T348
682H618Q616 804 581 867T485 930ZM931 1241Q835 1313 742 1419Q653 1319 556 1241H388V1268Q565 1491 605 1569H882Q929 1482 1099 1268V1241H931Z" />
<glyph unicode="&#xeb;" glyph-name="edieresis" horiz-adv-x="942" d="M524 -20Q315 -20 195 128T74 549Q74 825 183 980T487 1135Q669 1135 774 1003T879 631V489H344Q347 340 405 268T565 195Q695 195 831 276V57Q703 -20 524 -20ZM485 930Q428 930 391 870T348
682H618Q616 804 581 867T485 930ZM412 1403Q412 1464 447 1498T544 1532Q606 1532 641 1497T677 1403Q677 1346 642 1311T544 1276Q482 1276 447 1309T412 1403ZM810 1403Q810 1463 845 1497T943 1532Q1004 1532 1040 1498T1076 1403Q1076 1344 1041 1310T943
1276Q881 1276 846 1310T810 1403Z" />
<glyph unicode="&#xec;" glyph-name="igrave" horiz-adv-x="496" d="M381 0H115V1114H381V0ZM193 1241Q118 1301 17 1401T-110 1548V1569H208Q235 1509 288 1414T380 1268V1241H193Z" />
<glyph unicode="&#xed;" glyph-name="iacute" horiz-adv-x="496" d="M381 0H115V1114H381V0ZM113 1241V1268Q154 1321 208 1419T285 1569H603V1548Q579 1505 484 1410T300 1241H113Z" />
<glyph unicode="&#xee;" glyph-name="icircumflex" horiz-adv-x="496" d="M381 0H115V1114H381V0ZM433 1241Q337 1313 244 1419Q155 1319 58 1241H-110V1268Q67 1491 107 1569H384Q431 1482 601 1268V1241H433Z" />
<glyph unicode="&#xef;" glyph-name="idieresis" horiz-adv-x="496" d="M381 0H115V1114H381V0ZM-85 1403Q-85 1464 -50 1498T47 1532Q109 1532 144 1497T180 1403Q180 1346 145 1311T47 1276Q-15 1276 -50 1309T-85 1403ZM313 1403Q313 1463 348 1497T446 1532Q507
1532 543 1498T579 1403Q579 1344 544 1310T446 1276Q384 1276 349 1310T313 1403Z" />
<glyph unicode="&#xf0;" glyph-name="eth" horiz-adv-x="1012" d="M938 569Q938 294 824 137T502 -20Q304 -20 189 115T74 483Q74 723 174 857T459 991Q580 991 664 874L676 877Q628 1055 494 1194L274 1049L178 1194L371 1317Q322 1355 217 1413L311 1571Q459
1494 545 1427L752 1567L846 1423L676 1313Q811 1172 874 988T938 569ZM666 530Q666 646 624 713T510 780Q422 780 384 706T346 483Q346 350 387 279T508 207Q593 207 629 288T666 530Z" />
<glyph unicode="&#xf1;" glyph-name="ntilde" horiz-adv-x="1038" d="M668 0V664Q668 785 639 847T545 909Q459 909 419 824T379 535V0H113V1114H324L356 971H373Q409 1048 476 1091T633 1135Q785 1135 860 1031T936 727V0H668ZM658 1348Q627 1348 609 1325T580
1239H439Q450 1392 507 1466T658 1540Q701 1540 735 1524T800 1487T858 1451T916 1434Q950 1434 965 1460T992 1542H1133Q1122 1390 1064 1316T914 1241Q870 1241 836 1257T772 1294T715 1331T658 1348Z" />
<glyph unicode="&#xf2;" glyph-name="ograve" horiz-adv-x="1012" d="M938 559Q938 285 822 133T504 -20Q376 -20 278 50T127 251T74 559Q74 830 189 982T508 1135Q705 1135 821 980T938 559ZM346 559Q346 385 384 296T506 207Q666 207 666 559Q666 734 628 820T506
907Q422 907 384 821T346 559ZM459 1241Q384 1301 283 1401T156 1548V1569H474Q501 1509 554 1414T646 1268V1241H459Z" />
<glyph unicode="&#xf3;" glyph-name="oacute" horiz-adv-x="1012" d="M938 559Q938 285 822 133T504 -20Q376 -20 278 50T127 251T74 559Q74 830 189 982T508 1135Q705 1135 821 980T938 559ZM346 559Q346 385 384 296T506 207Q666 207 666 559Q666 734 628 820T506
907Q422 907 384 821T346 559ZM366 1241V1268Q407 1321 461 1419T538 1569H856V1548Q832 1505 737 1410T553 1241H366Z" />
<glyph unicode="&#xf4;" glyph-name="ocircumflex" horiz-adv-x="1012" d="M938 559Q938 285 822 133T504 -20Q376 -20 278 50T127 251T74 559Q74 830 189 982T508 1135Q705 1135 821 980T938 559ZM346 559Q346 385 384 296T506 207Q666 207 666 559Q666 734 628
820T506 907Q422 907 384 821T346 559ZM950 1241Q854 1313 761 1419Q672 1319 575 1241H407V1268Q584 1491 624 1569H901Q948 1482 1118 1268V1241H950Z" />
<glyph unicode="&#xf5;" glyph-name="otilde" horiz-adv-x="1012" d="M938 559Q938 285 822 133T504 -20Q376 -20 278 50T127 251T74 559Q74 830 189 982T508 1135Q705 1135 821 980T938 559ZM346 559Q346 385 384 296T506 207Q666 207 666 559Q666 734 628 820T506
907Q422 907 384 821T346 559ZM644 1348Q613 1348 595 1325T566 1239H425Q436 1392 493 1466T644 1540Q687 1540 721 1524T786 1487T844 1451T902 1434Q936 1434 951 1460T978 1542H1119Q1108 1390 1050 1316T900 1241Q856 1241 822 1257T758 1294T701 1331T644
1348Z" />
<glyph unicode="&#xf6;" glyph-name="odieresis" horiz-adv-x="1012" d="M938 559Q938 285 822 133T504 -20Q376 -20 278 50T127 251T74 559Q74 830 189 982T508 1135Q705 1135 821 980T938 559ZM346 559Q346 385 384 296T506 207Q666 207 666 559Q666 734 628
820T506 907Q422 907 384 821T346 559ZM431 1403Q431 1464 466 1498T563 1532Q625 1532 660 1497T696 1403Q696 1346 661 1311T563 1276Q501 1276 466 1309T431 1403ZM829 1403Q829 1463 864 1497T962 1532Q1023 1532 1059 1498T1095 1403Q1095 1344 1060 1310T962
1276Q900 1276 865 1310T829 1403Z" />
<glyph unicode="&#xf7;" glyph-name="divide" horiz-adv-x="918" d="M106 618V825H811V618H106ZM332 373Q332 518 457 518Q518 518 549 481T580 373Q580 305 548 266T457 227Q403 227 368 261T332 373ZM332 1071Q332 1217 457 1217Q518 1217 549 1180T580 1071Q580
1004 548 965T457 926Q403 926 368 960T332 1071Z" />
<glyph unicode="&#xf8;" glyph-name="oslash" horiz-adv-x="1012" d="M938 559Q938 285 822 133T504 -20Q412 -20 338 16L281 -96L119 -20L197 131Q140 202 107 310T74 559Q74 830 189 982T508 1135Q606 1135 684 1094L735 1190L895 1116L823 975Q938 827 938
559ZM338 559V486L340 416L584 891Q550 907 506 907Q338 907 338 559ZM676 559L672 676L438 219Q463 207 506 207Q589 207 632 296T676 559Z" />
<glyph unicode="&#xf9;" glyph-name="ugrave" horiz-adv-x="1038" d="M715 0L682 143H668Q631 67 563 24T406 -20Q256 -20 179 82T102 387V1114H371V451Q371 329 400 267T494 205Q580 205 619 291T659 580V1114H928V0H715ZM463 1241Q388 1301 287 1401T160 1548V1569H478Q505
1509 558 1414T650 1268V1241H463Z" />
<glyph unicode="&#xfa;" glyph-name="uacute" horiz-adv-x="1038" d="M715 0L682 143H668Q631 67 563 24T406 -20Q256 -20 179 82T102 387V1114H371V451Q371 329 400 267T494 205Q580 205 619 291T659 580V1114H928V0H715ZM381 1241V1268Q422 1321 476 1419T553
1569H871V1548Q847 1505 752 1410T568 1241H381Z" />
<glyph unicode="&#xfb;" glyph-name="ucircumflex" horiz-adv-x="1038" d="M715 0L682 143H668Q631 67 563 24T406 -20Q256 -20 179 82T102 387V1114H371V451Q371 329 400 267T494 205Q580 205 619 291T659 580V1114H928V0H715ZM962 1241Q866 1313 773 1419Q684
1319 587 1241H419V1268Q596 1491 636 1569H913Q960 1482 1130 1268V1241H962Z" />
<glyph unicode="&#xfc;" glyph-name="udieresis" horiz-adv-x="1038" d="M715 0L682 143H668Q631 67 563 24T406 -20Q256 -20 179 82T102 387V1114H371V451Q371 329 400 267T494 205Q580 205 619 291T659 580V1114H928V0H715ZM441 1403Q441 1464 476 1498T573
1532Q635 1532 670 1497T706 1403Q706 1346 671 1311T573 1276Q511 1276 476 1309T441 1403ZM839 1403Q839 1463 874 1497T972 1532Q1033 1532 1069 1498T1105 1403Q1105 1344 1070 1310T972 1276Q910 1276 875 1310T839 1403Z" />
<glyph unicode="&#xfd;" glyph-name="yacute" horiz-adv-x="913" d="M0 1114H276L430 485Q453 401 467 250H473Q474 274 482 335T495 432T633 1114H913L594 -80Q536 -300 440 -396T184 -492Q105 -492 43 -475V-252Q84 -264 135 -264Q269 -264 311 -88L330 -18L0
1114ZM566 1241V1268Q607 1321 661 1419T738 1569H1056V1548Q1032 1505 937 1410T753 1241H566Z" />
<glyph unicode="&#xfe;" glyph-name="thorn" horiz-adv-x="1016" d="M379 969Q428 1062 485 1098T618 1135Q770 1135 856 985T942 559Q942 288 853 134T608 -20Q538 -20 482 13T379 127H365Q381 -9 381 -37V-492H113V1556H379V1192Q379 1169 378 1144T365 969H379ZM528
909Q450 909 416 837T379 596V561Q379 377 414 293T530 209Q670 209 670 563Q670 737 636 823T528 909Z" />
<glyph unicode="&#xff;" glyph-name="ydieresis" horiz-adv-x="913" d="M0 1114H276L430 485Q453 401 467 250H473Q474 274 482 335T495 432T633 1114H913L594 -80Q536 -300 440 -396T184 -492Q105 -492 43 -475V-252Q84 -264 135 -264Q269 -264 311 -88L330 -18L0
1114ZM381 1403Q381 1464 416 1498T513 1532Q575 1532 610 1497T646 1403Q646 1346 611 1311T513 1276Q451 1276 416 1309T381 1403ZM779 1403Q779 1463 814 1497T912 1532Q973 1532 1009 1498T1045 1403Q1045 1344 1010 1310T912 1276Q850 1276 815 1310T779 1403Z"
/>
<glyph unicode="&#x2013;" glyph-name="endash" horiz-adv-x="973" d="M70 442V659H903V442H70Z" />
<glyph unicode="&#x2014;" glyph-name="emdash" horiz-adv-x="1579" d="M70 442V659H1507V442H70Z" />
<glyph unicode="&#x2018;" glyph-name="quoteleft" horiz-adv-x="420" d="M35 961L20 983Q45 1080 93 1211T197 1462H399Q368 1337 338 1185T299 961H35Z" />
<glyph unicode="&#x2019;" glyph-name="quoteright" horiz-adv-x="420" d="M385 1462L399 1440Q349 1243 223 961H20Q84 1217 121 1462H385Z" />
<glyph unicode="&#x201a;" glyph-name="quotesinglbase" horiz-adv-x="553" d="M430 215Q378 13 254 -264H51Q116 2 152 238H416L430 215Z" />
<glyph unicode="&#x201c;" glyph-name="quotedblleft" horiz-adv-x="854" d="M455 983Q486 1101 538 1237T631 1462H834Q768 1195 733 961H469L455 983ZM20 983Q45 1080 93 1211T197 1462H399Q368 1337 338 1185T299 961H35L20 983Z" />
<glyph unicode="&#x201d;" glyph-name="quotedblright" horiz-adv-x="854" d="M399 1440Q349 1243 223 961H20Q84 1217 121 1462H385L399 1440ZM834 1440Q785 1248 657 961H455Q517 1207 555 1462H819L834 1440Z" />
<glyph unicode="&#x201e;" glyph-name="quotedblbase" horiz-adv-x="987" d="M430 215Q378 13 254 -264H51Q116 2 152 238H416L430 215ZM864 215Q812 13 688 -264H485Q550 2 586 238H850L864 215Z" />
<glyph unicode="&#x2022;" glyph-name="bullet" horiz-adv-x="750" d="M98 748Q98 896 169 975T375 1055Q507 1055 579 975T651 748Q651 603 578 522T375 440Q242 440 170 521T98 748Z" />
<glyph unicode="&#x2039;" glyph-name="guilsinglleft" horiz-adv-x="653" d="M74 569L381 1016L580 905L360 557L580 209L381 98L74 543V569Z" />
<glyph unicode="&#x203a;" glyph-name="guilsinglright" horiz-adv-x="653" d="M580 543L272 98L74 209L293 557L74 905L272 1016L580 569V543Z" />
</font>
</defs>
</svg>
